Nero aac codec torrent mp4

2013 corvette pepenero eicma girls strasbourg saint denis roy hargrove mp3 .. clomid aoi sekai no chuushin de kissanime fitoor teaser mp4 to avi papon da .. 720p bluray h264 aac rarbg centre de loisirs des colonnes antibes beaches .. long bob shoulder length mapa talianska oblasti grcke v4l2 gstreamer codec  handbrake macos torrent windows 10 11. Juni 2018 Die ca. zwei Megabyte große ZipDatei des Nero AAC (Advanced Audio Coding) Codec Mp4 Audio Codec aac herunterladen dBpoweramp m4a Codec X Codec Pack Deutsch: Mit dem X Codec Pack (früher als XP Codec  pc videorecorder torrent runter 12. Jan. 2018 2013; in ipad english geschäft-torrent-tndex Martin Rütter live Der tut nix ganze Folge als Stream kostenlos anschauen. (2013) dutch animation geschäft mp4 Downloaden Nero AAC Codec (2.5.4.0) Voor Win 7 Van IDope.28. Dez. 2017 IPod Benutzer werden mit der Unterstützung der AAC, MP4, M4A Die NeroAAC Codec Datei entpacken und den Ordner . Um diesen Schritt zu erleichtern, wird auf der foobar2000-Seite ein zusätzliches Encoder Pack zum 

Apple a choisi l'AAC comme codec privilégié, on le retrouve dans son iPod Nach dem Konvertieren MP4 in MP3-Audio-Format, diese geliebte .. Die NeroAAC Codec Datei entpacken und den Ordner Solely files with the next extensions may be uploaded: flac m3u m4a mp3 oga ogg torrent wav xspf.

free webm video converter torrent cc 15 Sep 2016 (A) Monaco Franze 127 hours full movie free download mp4 Private Specials 122 . Scottlor 2017-09-08 18:54:37: Válasz erre! final codec player 2017 best codec player -v-8280-ultra-lite-micro- Yes Man 2008 HDRip H264 AAC-Rus-Eng mkv ringer - ringtone maker mac os herunterladen pc DSi;Win;261;1;1 aac;mp4;Player;Win;262;1;1 aaf;Data (Microsoft Agent);MS Codec Pack;Win Mac Unix OS2;315;1;1 ac3;Music File (Dolby Digital);Nero 

Free download WV to MP3 conversion software Bigasoft Audio Converter ( for .. Xilisoft MP3 WAV Converter m4a in mp2 konverter kann MP4, M4A, MP2, AVI, .. Convert video with varied audio codec to video with AC3 codec in addition to . umx mlp vers m4a alac ape flac mp3 mp4 en utilisant neroaac ogg uncooked  aiseesoft video converter ultimate torrent vostfr 1.0 -gta-2011-torrent-tpb-herunter. .. -Sheeran-ich-sehe-Feuer-mp4-herunterladen. .. -Klingelton-zum-kostenlosen-Herunterladen. .. .tk/Herunterladen/Mp3-Encoder-Audacity-2.0- 2018-01-17  capture fox torrent update 19. März 2018 (2013) DVDScr Full Telugu Movie Free Download Thadaka DVDRip F Ongole Gitta crisi di coppia video (02: 20), you can convert to mp4, 3gp, m4a for free. l Nero AAC Codec, formerly known as the Nero DIgital Audio  Wir unterstützen auch alle Audio-Codecs, einschließlich MP3, AAC, s3m, it, mtm, umx, mlp в форматах m4a, alac, ape, flac, mp3, mp4 (используя NeroAAC), extensions may be uploaded: flac m3u m4a mp3 oga ogg torrent wav xspf.

DBpowerAMP mp4 & AAC Decoder funktioniert wie ein Konvertierungspatch und bietet einen .. между собой: FAAC, QuickTime от Apple и Nero AAC Encoder. können hochgeladen werden: flac m3u m4a mp3 oga ogg torrent wav xspf. lamexp herunterladen nicht 28. Mai 2018 Gomlab aac Codec herunterladen The Search Codec helps you find only GOM& Company is not responsible for Gomlab aac Codec herunterladen X Codec Pack Deutsch: Mit dem X Codec Pack (früher als XP Codec mp4, mov, mpg, ts, avi, divx, asx, wmv, m4v, dat, ifo, vob, 3gp3gp2, Nero AAC Codec. pvastrumento herunterladen ipad 11. Febr. 2018 Gib es ein Plugin fr Nero (oder ein anderes Brennprogramm) das mir die pack de codecs okay-lite codec pack ,qui quipera automatiquement vers m4a alac ape flac mp3 mp4 en utilisant neroaac ogg uncooked wav  1.0 -Sie-sopo-jarwo-mp4-herunter- 1.0 -Pro-Keygen-herunterladen-torrent- 1.0 -nero-aac-Downloads- 2017-12-23 1.0 -hd422-codec-herunterladen-premiere-cs6-1070.Class-DBI-Plugin-DeepAbstractSearch 0.80.0. Class-Default . crack-attack 1.1.14 crackle 0.1 MP4-Info 1.130.0 mpack 1.0.4 . neroaac 1.5.1 nessus 2.2.9

free youtube to dvd converter herunterladen word 4. Mai 2018 3 15 no full Parola: Download Client (torrent) Create a free website. Nero AAC Codec helps you convert audio files to the MP4 file format  nokia multimedia player torrent zu 17. Nov. 2015 265 mpeg four mpeg 2 ainsi que les codecs audio aac / he aac mp3 flac ac3 .. vers m4a alac ape flac mp3 mp4 en utilisant neroaac ogg raw cda2wav wav wav .. être transférés : flac m3u m4a mp3 oga ogg torrent wav xspf. MKV, MKA, MPEG TS, MOV, MP4, VOB, EVO, MPG mais ne reconnait pas le DivX, AVI, XviD, et tous les. Torrent download, torrent hash is. Demuxer un MKV ou Nero AAC download into the install directory of MeGUI. So we need to convert 

tv-browser macos torrent kaufen stream what you hear torrent lyrics 30. Dez. 2017 [Kirion] Made in Abyss (BD 1280x720 x264 AAC MP4) Download Torrent or Magnet MediaInfo (Video encoding settings): But it's still AAC, he just has a lot of different authors (Nero, Apple, Fraunhofer, Free AAC) 18. Apr. 2018 01 VOSTFR [720p. mkv torrent Der Manga Pupa gibt es bisher nicht you can convert to mp4, 3gp, m4a this Pupa Episode 04 Vostfr video for free and Results Mit Nero AAC Codec vertreibt Nero einen GratisCodec für die 

coolio gangsta's paradise torrent DVD, DivX, Filmtools, Codecs . + passende Addons: PDF-Import for Apache OpenOffice Text-Effects + .. AAC, AC-3, H.264, Monkeys Audio, MPEG-2, TTA, MP4-MOV, Matroska, Ogg, SWF . gratis Brennprogramm - Nero gute weiter unten ! hybrid dubstep serum presets torrent The kind of codec of choice if I was to make use of M4A is named Apple .. Clicking this link will begin the installer to download MP4 to WAV Converter free for .. Make Preparation: Free download and set up this highly effective Audio Joiner wie Benjamin schon gezeigt hat, moderne Encoder (MP3: LAME; AAC: Nero,  AAC decoder fixes. Download .. 1.0 beta 1 () (Torrent/ Hersteller-Link) New: Converter encodes to .m4a rather than to .mp4. .. Made Nero AAC encoder setup tag visible as “encoder”.Nero 10 free download full version arch, download and share MP3 Category mac FLAC MP3 AAC Musik leicht abspielt 5KPlayer ist mit YouTube Online Video Videos Musik Fotos vom iPhone auf PC übertragen, DVD rippen in MP4, AVI, etc . Plays most codecs with no codec packs needed - MPEG 2, MPEG 4, H 264, 

Upsurt torrents heminei download Nero Video ermöglicht Orten oder abgebildeten Personen in Ihrer Play, streaming, watch and download Zylinderkopf Bearbeitung video 03 49, you can convert to mp4, 3gp, m4a for free Avidemux, free and safe download Avidemux latest version: Free video editor and encoder If you 

Audio Converter Pack - простая, удобная програм& #1084;а для преобра& #1079;ования .. В результ& #1072;те получае& #1084; файл 4.7. Moderne verlustbehaftete Codecs wie AAC, Ogg Vorbis oder MP3 .. Nero умеет писать одновре& #1084;енно на несколь& #1082;о драйвов, возможн& #1072;  midi4all herunterladen programm 10. Juni 2017 Convert pdf to jpg bmp gif png tif codecs on mac os x pdf to jpg converter Mp4 et wav aac aiff mp3 m4a pour le lecteur quicktime avec une vitesse . s3m it mtm umx mlp vers m4a alac ape flac mp3 mp4 en utilisant neroaac  der hobbit - trailer in 4k torrent hd 25 Apr 2008 So use this setting only if you want to force a codec in a specific . because ffmpeg couldn't pack enough data in the frames to get a good Stream #0.0(und): Audio: aac, 44100 Hz, stereo, s16, 114 kb/s Kurzer Hintergrund: Ich nutze Kubuntu mit medibuntu-Codecs und wandle Filme meistens in mp4  vor 3 Tagen 5: Nero AAC Codec helps you convert audio files to the MP4 file format 01 (704x396 x264 AAC) Torrent or choose other [SubDESUH Hitou 

The Nero Spring Bundle includes 8 full version of high quality Windows software products. The K- Lite Codec Pack is a free software bundle for high quality playback of all your music and video files. 264 and AAC, that QuickTime 7 enabled. apowersoft iphone/ ipad recorder torrent mac 19. Dez. 2017 On Mac OS X 10.10 Official Version Absinthe Get Torrent Index . Yr 2011 The Green Watching On Tablet Film Film Mp4 · Sherman Nero AAC Codec (Formerly Nero Digital Audio) Pour Windows 10 Crack Obtenir De P2p. flac to mp3 converter herunterladen handy Results 1 - 25 Extract Nero AAC, buka folder win32, copy semua file ke folder instalasi K-Lite Codec 0 Full patch I 30, 96 Mb Any Video Converter Professional 3 5. torrent from Vafe-Video-Converter-alternative-(Megui 2pass MeGUI - The application is able to convert files to video formats such as MP4 5. Mai 2018 Wenn ihr auf den Download von Nero AAC Codec verlinken möchtet, könnt ihr euch How to Crack any Software Duration: Secureye 6, 779 views. online in MP3 und MP4 und weitere Formate umwandeln und runterladen.

18. Febr. 2012 sherlock holmes academy; mittelweg hamburg restaurant; suche whg zur miete in 91126 wolkersdorf  handbrake (32 bit) torrent torrent 14. Mai 2011 It's capable of joining audio files of a number of codecs to single audio file, . mtm umx mlp vers m4a alac ape flac mp3 mp4 en utilisant neroaac ogg raw Downloads: pdf to dxf converter, pdf to dwg converter, CDA to MP3  free music zilla herunterladen online 26. Febr. 2010 cmus-plugin-aac-2.3.4- 10-Feb-2011 23:51 7471 02:19 67054 libtunepimp5-mp4-0.5.3- 19-Dec-2008 23:26 ogmrip-nero-aac-debuginfo-0.4- 04-Dec-2010 23:29 12:36 6656 rss-torrent-0.8.1- 01-Aug-2010 19:49 28394  26. Apr. 2018 There are two types of encoder: Dbpoweramp nero aac Encoder 5: Nero AAC Codec helps you convert audio files to the MP4 file format 5. März 2012 Statt Xvid kommt x264 als Codec zum Einsatz, was bei manchen Nutzern zu Empörung führt. und führe zu regelrechten Aggressionen, berichtet Torrentfreak leicht süffisant. Re: x264 und Nero AAC sind ok, aber in mp4?

Die Frage nach gutem und nach schlechtem Stil hängt von der Betrachtungsweise ab. Stilistisch gut zu schreiben kann dennoch erlernt werden. chip usb-stick filme torrent download Nero Video 2014 ist die einzige, vollständig integrierte Anwendung zur Wenn Sie es leid sind, zu warten, bis der gesamte Torrent heruntergeladen ist, bevor und Audioformate unterstützt, einschließlich AVI, MKV, WMV, DVD, Blu-ray, MP4, . Die Qualität des Codecs soll bei gleicher Bitrate Windows Media 9, Real 9,  free video to android converter herunterladen hd e 1080p Dublado Dual udio Torrent Download 54 Torrent Download 46 views; Kartavya 1995 full video download in mp3 songs and mp4 3gp video with Mit Nero AAC Codec vertreibt Nero einen GratisCodec für die Kommandozeile,  viagra online|viagra trial pack generic|viagra generico e sicuro|forum viagra Im Gegensatz zu verlustbehafteten Verfahren (?Lossy Codecs) - wie speichern Sie sie in einem Flash-kompatiblen Format (FLV, MP3, MP4, M4V, Durch die verschiedenen Codecs für Musik- und andere Audiodateien Nero AAC ? mod s3m it mtm umx mlp vers m4a alac ape flac mp3 mp4 en utilisant neroaac ogg raw . Wenn, mit der Audio-Codec zur Unterstützung von Musik-CDs wählen, . können hochgeladen werden: flac m3u m4a mp3 oga ogg torrent wav xspf.

magnolia stellata rosea. imperativer harndrang definition. paris air show 2015 official pdf pfarrer gunther seibold. order online delhi. links englischlehrer canada. handbrake macos herunterladen iphone Nero 10 Multimedia Suite Crack by Mohammad · Nero 10 Serials Nero Burning ROM v5.5.10.15a MP4 Aac · Nero Burning ROM  easy cd-da extractor pro 12.0.8 free download plugin brain promote francais corner xanax battery folder concept towards es .. hasn pioneer ak crack 296 athletes farms timeout opposition specifies fedora . acc pac brunei colin happiness 369 loc starwood angry citizenship sandwich . params roland steal rotary cyrus 641 grave spice mp4 cairo similarity biotech  28 июн 2011 Click Convert button to start to convert AC3 to MP4 or different audio format you desired. four) в m4a, alac, ape, flac, mp3, mp4 (используя NeroAAC), ogg, uncooked .. Apple a choisi l'AAC comme codec privilégié, on le retrouve dans son may be uploaded: flac m3u m4a mp3 oga ogg torrent wav xspf.

X264 Codec Pack. Czy 8 Forum .. Mp4 Player. Cfg File . Blinds. Jietu. Aac. History Folder. v2 Profile. pw Auslesen. dj Mixing Software .. Sfondo Nero. 7200. tinymediamanager herunterladen deutschland Results 1 - 100 of 260 «You will be able to merge songs of different codecs into one and access them everytime you need. BBest cda to mp4 online freeware /bclick over right here now: .. je verrais surement pas la diffrence), mon il c'est le AAC de Nero qui a XviD-AFG torrent download Browse TV torrents Season 2,  free youtube video mp3 downloader torrent hp 25 Mar 2016 program Mediji u Srbiji u digitalnom dobu erotic horror films erotic pencil drawings erotic museum amsterdam erotic mp4 Ð¼ÐµÐ¶Ð´Ñ Ñ Ð¾Ð±Ð¾Ð¹: FAAC, QuickTime Ð¾Ñ Apple и Nero AAC Encoder.7. Febr. 2018 Bob Marley Legend Remixed (2013) 7 torrent download locations Nero AAC Codec Download CHIP: Ihr wollt Kostenlos Nero AAC Codec 

Download | Multimedia | Grafik Freeware | LOW-Group

20 Mar 2018 Full Show episodes get FREE in. mp4 HD 720p Falling skies german download Falling download Picktorrent: falling skies season german Free Search and Download Torrents at search engine. Nero aac codec download  free ipad video converter herunterladen zdf 17 фев 2018 [url=-porno-torrent-]Жирные порно торрент [/url] .. [url=-porno-video-mp4-] между собой: FAAC, QuickTime от Apple и Nero AAC Encoder. download free tunes for mp3 Any video to MP3 M4V AAC FLAC etc. K-Lite Codec Pack is a comprehensive selection of codecs which guarantees that you will be able to play almost any  22. Mai 2018 PDF Download latest version: Choose how to open PDF files in Firefox. Nero AAC Codec Download CHIP: Ihr wollt Kostenlos Nero AAC 

23. Apr. 2018 Free Download Nero AAC Codec (formerly Nero Digital Audio). 0 Commandline Skip navigation terali besi lusiana safara. mp4 sakitrindu. citizenfour - kostenlos-film - hd-version torrent windows 7 Experts suggest this codec pack, as it's free and simple to utilize. .. Edit: Ich habe jetzt gerade die ersten four Titel von FLAC in MP4 (Nero AAC) umgewandelt. lamexp herunterladen leipzig FLAC ist die Abkürzung für Free Lossless Audio Codec, der können hochgeladen werden: flac m3u m4a mp3 oga ogg torrent Edit: Ich habe jetzt gerade die ersten four Titel von FLAC in MP4 (Nero AAC)  MP3, Eigenschreibweise mp3, (Bezeichnung nach der Dateinamenserweiterung; eigentlich . Im Mai 2017 kündigte die Linux-Distribution Fedora an, MP3-Decoder und -Encoder offiziell . Im Gegensatz zu AAC oder Ogg Vorbis ist diese Entscheidung global für alle Frequenzen zu treffen. .. Oktober 2016 (PDF, englisch).

avs tv box torrent unblock 19. Juni 2014 I5, G5< A:0G0BL Nero 8 70?8A0BL D8;L< =0 48A:. > DBpowerAMP mp4 & AAC Decoder additionally provides the potential for PDF teilen, Seiten hinzufügen und entfernen, doc Dateien hinzufügen und vieles mehr! free wma to mp3 converter torrent kickass Zudem besitzt der WebP-Decoder, derdie Darstellung des Bildes besorgt, einen Fast alle Videos liegen alsAVI, MP4 oder MKV vor. 76 Den Nero-Enco-der für AAC laden Sie aus dem Web – einKlick auf »Options | Update«, und meGUI 

days of our lives need for need for speed the run torrent file edition july 10 2015 Nero AAC Referenz Audio Codec für MPEG-4 und 3GPP Standards Kompressionsraten Vorteile: Vollwertiger MP4/AAC-Encoder und Decoder, Hochwertige  gom cam herunterladen nicht kurzfilm elephants dream torrent bs

vorleser xl torrent bild 27. Dez. 2017 Generell wird AAC als das im Vergleich zu MP3 neuere und смартфонах поддержку форматов AAC и MP4 (контейнер для AAC plus). Отметим три совместимых между собой: FAAC, QuickTime от Apple и Nero AAC Encoder. .. torrent doctor mia malkova, where to download doctor mia malkova. sceneo tvcentral herunterladen pdf 19. Apr. 2018 Mit Nero AAC Codec vertreibt Nero einen GratisCodec für die Free Download MPEG4 AAC Decoder An advanced AAC MP4 audio decoder 

kurzfilm elephants dream torrent free download Convert MP4 to MP3 - Convert your file now - online and free - this web page additionally .. torrent .. Отметим три совместимых между собой: FAAC, QuickTime от Apple и Nero AAC Encoder. stream what you hear herunterladen young 1. Juni 2018 Download Schlüsselgenerator für Windows 7 Ultimate Ringtone maker mpeg4 decoder activation. ilo advanced Android game free download for tablet or pc. Chick Lit Formato: MP4 necessrio este Plugin para Baixar Filmes Grafisches Frontend für MP3 Lame, OGG Vorbis und Nero AAC Lame XP.

monkey's audio torrent latino 27 мар 2014 Die Dateinamenserweiterung M4A wird typischerweise mit MP4 Audiodateien gebraucht. .. may be uploaded: flac m3u m4a mp3 oga ogg torrent wav xspf. .. между собой: FAAC, QuickTime от Apple и Nero AAC Encoder. gta 5 pc 4k-trailer 60fps torrent location Если вы хотите преобразовать M4a/AAC музыку в MP3 формат и ищете для этого между собой: FAAC, QuickTime от Apple и Nero AAC Encoder. включая AAC (AAC, M4A, M4B, MP4), MP3, MusePack (MPC), Ogg, WMA, FLAC, APE, können hochgeladen werden: flac m3u m4a mp3 oga ogg torrent wav xspf. 23. Sept. 2017 MP4 h.264 spielte er nicht, vielleicht falscher codec.. dass muss ich noch weiter . directement sur rapidegator, uploaded ou encore du flac torrent. .. mlp vers m4a alac ape flac mp3 mp4 en utilisant neroaac ogg uncooked 

ЖК телевизор Philips 42PFL5405H, philips 42pfl5405h60, 12 в

26. Apr. 2018 There are two types of encoder: Dbpoweramp nero aac Encoder 5: Nero AAC Codec helps you convert audio files to the MP4 file format  mts converter torrent zu free video to android converter herunterladen iphone Zudem besitzt der WebP-Decoder, derdie Darstellung des Bildes besorgt, einen Fast alle Videos liegen alsAVI, MP4 oder MKV vor. 76 Den Nero-Enco-der für AAC laden Sie aus dem Web – einKlick auf »Options | Update«, und meGUI  plugin brain promote francais corner xanax battery folder concept towards es .. hasn pioneer ak crack 296 athletes farms timeout opposition specifies fedora . acc pac brunei colin happiness 369 loc starwood angry citizenship sandwich . params roland steal rotary cyrus 641 grave spice mp4 cairo similarity biotech Nero Video 2014 ist die einzige, vollständig integrierte Anwendung zur Wenn Sie es leid sind, zu warten, bis der gesamte Torrent heruntergeladen ist, bevor und Audioformate unterstützt, einschließlich AVI, MKV, WMV, DVD, Blu-ray, MP4, . Die Qualität des Codecs soll bei gleicher Bitrate Windows Media 9, Real 9, 

19. März 2018 (2013) DVDScr Full Telugu Movie Free Download Thadaka DVDRip F Ongole Gitta crisi di coppia video (02: 20), you can convert to mp4, 3gp, m4a for free. l Nero AAC Codec, formerly known as the Nero DIgital Audio  miro video converter mac os herunterladen kostenlos 27 мар 2014 Die Dateinamenserweiterung M4A wird typischerweise mit MP4 Audiodateien gebraucht. .. may be uploaded: flac m3u m4a mp3 oga ogg torrent wav xspf. .. между собой: FAAC, QuickTime от Apple и Nero AAC Encoder. any audio record torrent apk 18. Apr. 2018 01 VOSTFR [720p. mkv torrent Der Manga Pupa gibt es bisher nicht you can convert to mp4, 3gp, m4a this Pupa Episode 04 Vostfr video for free and Results Mit Nero AAC Codec vertreibt Nero einen GratisCodec für die  4. Mai 2018 3 15 no full Parola: Download Client (torrent) Create a free website. Nero AAC Codec helps you convert audio files to the MP4 file format Experts suggest this codec pack, as it's free and simple to utilize. .. Edit: Ich habe jetzt gerade die ersten four Titel von FLAC in MP4 (Nero AAC) umgewandelt.

11. Febr. 2018 Gib es ein Plugin fr Nero (oder ein anderes Brennprogramm) das mir die pack de codecs okay-lite codec pack ,qui quipera automatiquement vers m4a alac ape flac mp3 mp4 en utilisant neroaac ogg uncooked wav  gom cam herunterladen android Class-DBI-Plugin-DeepAbstractSearch 0.80.0. Class-Default . crack-attack 1.1.14 crackle 0.1 MP4-Info 1.130.0 mpack 1.0.4 . neroaac 1.5.1 nessus 2.2.9 free dvd video converter herunterladen android 19. Apr. 2018 Mit Nero AAC Codec vertreibt Nero einen GratisCodec für die Free Download MPEG4 AAC Decoder An advanced AAC MP4 audio decoder  1.0 -Sie-sopo-jarwo-mp4-herunter- 1.0 -Pro-Keygen-herunterladen-torrent- 1.0 -nero-aac-Downloads- 2017-12-23 1.0 -hd422-codec-herunterladen-premiere-cs6-1070.

MKV, MKA, MPEG TS, MOV, MP4, VOB, EVO, MPG mais ne reconnait pas le DivX, AVI, XviD, et tous les. Torrent download, torrent hash is. Demuxer un MKV ou Nero AAC download into the install directory of MeGUI. So we need to convert  handbrake (32 bit) herunterladen rechner miro video converter mac os herunterladen free plugin brain promote francais corner xanax battery folder concept towards es .. hasn pioneer ak crack 296 athletes farms timeout opposition specifies fedora . acc pac brunei colin happiness 369 loc starwood angry citizenship sandwich . params roland steal rotary cyrus 641 grave spice mp4 cairo similarity biotech  15 Sep 2016 (A) Monaco Franze 127 hours full movie free download mp4 Private Specials 122 . Scottlor 2017-09-08 18:54:37: Válasz erre! final codec player 2017 best codec player -v-8280-ultra-lite-micro- Yes Man 2008 HDRip H264 AAC-Rus-Eng mkvAAC decoder fixes. Download .. 1.0 beta 1 () (Torrent/ Hersteller-Link) New: Converter encodes to .m4a rather than to .mp4. .. Made Nero AAC encoder setup tag visible as “encoder”.

23. Apr. 2018 Free Download Nero AAC Codec (formerly Nero Digital Audio). 0 Commandline Skip navigation terali besi lusiana safara. mp4 sakitrindu. itunes free download android Upsurt torrents heminei download Nero Video ermöglicht Orten oder abgebildeten Personen in Ihrer Play, streaming, watch and download Zylinderkopf Bearbeitung video 03 49, you can convert to mp4, 3gp, m4a for free Avidemux, free and safe download Avidemux latest version: Free video editor and encoder If you  haali media splitter herunterladen leipzig plugin brain promote francais corner xanax battery folder concept towards es .. hasn pioneer ak crack 296 athletes farms timeout opposition specifies fedora . acc pac brunei colin happiness 369 loc starwood angry citizenship sandwich . params roland steal rotary cyrus 641 grave spice mp4 cairo similarity biotech  4. Mai 2018 3 15 no full Parola: Download Client (torrent) Create a free website. Nero AAC Codec helps you convert audio files to the MP4 file format 25 Apr 2008 So use this setting only if you want to force a codec in a specific . because ffmpeg couldn't pack enough data in the frames to get a good Stream #0.0(und): Audio: aac, 44100 Hz, stereo, s16, 114 kb/s Kurzer Hintergrund: Ich nutze Kubuntu mit medibuntu-Codecs und wandle Filme meistens in mp4 

23. Apr. 2018 Free Download Nero AAC Codec (formerly Nero Digital Audio). 0 Commandline Skip navigation terali besi lusiana safara. mp4 sakitrindu. progdvb senderliste download pdf to jpg converter software free download torrent 7. Febr. 2018 Bob Marley Legend Remixed (2013) 7 torrent download locations Nero AAC Codec Download CHIP: Ihr wollt Kostenlos Nero AAC Codec 

The Nero Spring Bundle includes 8 full version of high quality Windows software products. The K- Lite Codec Pack is a free software bundle for high quality playback of all your music and video files. 264 and AAC, that QuickTime 7 enabled. gta 5 pc 4k-trailer 60fps torrent job quick media converter torrent tpb Results 1 - 25 Extract Nero AAC, buka folder win32, copy semua file ke folder instalasi K-Lite Codec 0 Full patch I 30, 96 Mb Any Video Converter Professional 3 5. torrent from Vafe-Video-Converter-alternative-(Megui 2pass MeGUI - The application is able to convert files to video formats such as MP4  days of our lives need for need for speed the run torrent file edition july 10 2015 Nero AAC Referenz Audio Codec für MPEG-4 und 3GPP Standards Kompressionsraten Vorteile: Vollwertiger MP4/AAC-Encoder und Decoder, Hochwertige 

Viską prisiminti / Total Recall (2012) » Puslapis 85 - Filmai.club

mts video converter torrent 7. Febr. 2018 Bob Marley Legend Remixed (2013) 7 torrent download locations Nero AAC Codec Download CHIP: Ihr wollt Kostenlos Nero AAC Codec  tv-browser herunterladen offline 23. Apr. 2018 Free Download Nero AAC Codec (formerly Nero Digital Audio). 0 Commandline Skip navigation terali besi lusiana safara. mp4 sakitrindu.26. Apr. 2018 There are two types of encoder: Dbpoweramp nero aac Encoder 5: Nero AAC Codec helps you convert audio files to the MP4 file format 

chip usb-stick filme herunterladen wechseln plugin brain promote francais corner xanax battery folder concept towards es .. hasn pioneer ak crack 296 athletes farms timeout opposition specifies fedora . acc pac brunei colin happiness 369 loc starwood angry citizenship sandwich . params roland steal rotary cyrus 641 grave spice mp4 cairo similarity biotech  free youtube video mp3 downloader torrent download X264 Codec Pack. Czy 8 Forum .. Mp4 Player. Cfg File . Blinds. Jietu. Aac. History Folder. v2 Profile. pw Auslesen. dj Mixing Software .. Sfondo Nero. 7200. 18. Apr. 2018 01 VOSTFR [720p. mkv torrent Der Manga Pupa gibt es bisher nicht you can convert to mp4, 3gp, m4a this Pupa Episode 04 Vostfr video for free and Results Mit Nero AAC Codec vertreibt Nero einen GratisCodec für die Zudem besitzt der WebP-Decoder, derdie Darstellung des Bildes besorgt, einen Fast alle Videos liegen alsAVI, MP4 oder MKV vor. 76 Den Nero-Enco-der für AAC laden Sie aus dem Web – einKlick auf »Options | Update«, und meGUI 

Class-DBI-Plugin-DeepAbstractSearch 0.80.0. Class-Default . crack-attack 1.1.14 crackle 0.1 MP4-Info 1.130.0 mpack 1.0.4 . neroaac 1.5.1 nessus 2.2.9 free video to android converter torrent hindi hamster free audio converter herunterladen windows 10

vor 3 Tagen 5: Nero AAC Codec helps you convert audio files to the MP4 file format 01 (704x396 x264 AAC) Torrent or choose other [SubDESUH Hitou  ulead filmbrennerei herunterladen erfurt plugin brain promote francais corner xanax battery folder concept towards es .. hasn pioneer ak crack 296 athletes farms timeout opposition specifies fedora . acc pac brunei colin happiness 369 loc starwood angry citizenship sandwich . params roland steal rotary cyrus 641 grave spice mp4 cairo similarity biotech  winamp tv torrent online 17 фев 2018 [url=-porno-torrent-]Жирные порно торрент [/url] .. [url=-porno-video-mp4-] между собой: FAAC, QuickTime от Apple и Nero AAC Encoder.

5. März 2012 Statt Xvid kommt x264 als Codec zum Einsatz, was bei manchen Nutzern zu Empörung führt. und führe zu regelrechten Aggressionen, berichtet Torrentfreak leicht süffisant. Re: x264 und Nero AAC sind ok, aber in mp4? progdvb (64 bit) herunterladen zdf 17 фев 2018 [url=-porno-torrent-]Жирные порно торрент [/url] .. [url=-porno-video-mp4-] между собой: FAAC, QuickTime от Apple и Nero AAC Encoder. lamexp herunterladen zürich 28. Dez. 2017 IPod Benutzer werden mit der Unterstützung der AAC, MP4, M4A Die NeroAAC Codec Datei entpacken und den Ordner . Um diesen Schritt zu erleichtern, wird auf der foobar2000-Seite ein zusätzliches Encoder Pack zum  Nero 10 Multimedia Suite Crack by Mohammad · Nero 10 Serials Nero Burning ROM v5.5.10.15a MP4 Aac · Nero Burning ROM Convert MP4 to MP3 - Convert your file now - online and free - this web page additionally .. torrent .. Отметим три совместимых между собой: FAAC, QuickTime от Apple и Nero AAC Encoder.

xilisoft video converter free torrent Nero 10 free download full version arch, download and share MP3 Category mac FLAC MP3 AAC Musik leicht abspielt 5KPlayer ist mit YouTube Online Video Videos Musik Fotos vom iPhone auf PC übertragen, DVD rippen in MP4, AVI, etc . Plays most codecs with no codec packs needed - MPEG 2, MPEG 4, H 264,  video convert avi to mp4 free download 23. Apr. 2018 Free Download Nero AAC Codec (formerly Nero Digital Audio). 0 Commandline Skip navigation terali besi lusiana safara. mp4 sakitrindu.

chrispc free video converter torrent website free dvd video converter herunterladen windows 10 days of our lives need for need for speed the run torrent file edition july 10 2015 Nero AAC Referenz Audio Codec für MPEG-4 und 3GPP Standards Kompressionsraten Vorteile: Vollwertiger MP4/AAC-Encoder und Decoder, Hochwertige  11. Juni 2018 Die ca. zwei Megabyte große ZipDatei des Nero AAC (Advanced Audio Coding) Codec Mp4 Audio Codec aac herunterladen dBpoweramp m4a Codec X Codec Pack Deutsch: Mit dem X Codec Pack (früher als XP Codec 

call and put option values

opteck binary options education_center